#TITLE:pump it up;
#SUBTITLE:- turkey march(2);
#ARTIST:Unknown artist;
#TITLETRANSLIT:;
#SUBTITLETRANSLIT:;
#ARTISTTRANSLIT:;
#CREDIT:;
#BANNER:-TRMPN - bn.PNG;
#BACKGROUND:pump it up - turkey march (2) - bg.PNG;
#LYRICSPATH:;
#CDTITLE:;
#MUSIC:pump it up - turkey march(2).mp3;
#OFFSET:0.000;
#SAMPLESTART:25.000;
#SAMPLELENGTH:12.000;
#SELECTABLE:YES;
#BPMS:0.000=240.000,360.000=60.000,374.000=120.000;
#STOPS:;
#BGCHANGES:;
// cache tags:
#FIRSTBEAT:4.333;
#LASTBEAT:367.333;
#SONGFILENAME:Songs/music/pump it up  turkey march(2)/pump it up - turkey march(2).sm;
#HASMUSIC:1;
#HASBANNER:1;
#MUSICLENGTH:103.792;
// end cache tags

//---------------dance-single - ----------------
#NOTES:
     dance-single:
     :
     Hard:
     1:
     0.619,0.752,0.193,0.251,1.000,404.000,20.000,26.000,0.000,1.000:
0000
0000
0000
0000
,
0000
2002
0000
0000
0000
0000
0000
0000
0000
0000
0000
0000
,
0000
0000
0000
0000
,
0000
0000
0003
3220
0000
0000
0000
0000
0000
0000
0000
0000
,
0000
0000
0000
0000
0000
0000
0000
0300
0032
2000
0000
0000
,
0000
0000
0000
0000
,
0000
0000
0000
3000
0003
0000
0000
0000
0000
0000
0000
0000
,
0000
1000
0000
0100
0010
0001
0000
0000
0000
0000
1000
0000
,
0100
0000
0011
0000
0100
0000
0010
0000
0000
0000
0100
0001
,
1000
0010
0000
0100
0001
1000
0000
0010
0100
0001
1000
0000
,
0010
0000
0000
0000
0001
0000
0000
1000
0000
0000
0010
0000
,
0100
0000
0010
0000
1000
0000
0000
0001
0000
0100
0000
0000
,
0010
0000
1000
0000
0001
0000
0100
0000
0000
0010
0000
1000
,
0000
0000
0001
0000
0000
0000
0000
0001
1000
0001
0000
1000
,
0010
0000
0000
0000
0000
0001
0000
1000
0001
1000
0000
0000
,
0000
0000
0000
0001
1000
0000
0001
0000
1000
0000
0001
0000
,
0100
0000
0001
0000
1000
0000
0000
0000
0000
0010
0000
0100
,
0000
0000
0001
0000
1000
0000
0000
0010
0000
0100
0000
0000
,
0001
1000
0000
0010
0100
0000
0001
0100
0000
0010
1000
0001
,
0000
0100
0010
0000
1000
0001
0100
0000
0000
0000
0000
0000
,
0010
0000
1000
0000
0000
0010
0000
0000
0000
0000
0010
0000
,
0100
0000
0000
0010
0000
0000
0000
0000
1000
0010
0000
0000
,
0100
0000
0010
0000
0000
1000
0000
0001
0000
0000
0100
0000
,
0000
0000
0001
0000
0100
0000
0010
0000
0000
1000
0000
0000
,
0010
0000
1000
0000
0001
0000
0000
0100
0000
0010
0000
0000
,
1000
0000
0001
0000
0000
0100
0000
0010
0000
1000
0000
0001
,
0000
0000
0100
0000
0010
0000
0100
0010
0100
0000
0000
0000
,
0000
0000
0001
0000
0010
0000
0001
0000
0010
0000
0000
0000
,
0000
0010
1000
0000
0000
0010
1000
0000
0010
0000
1000
0010
,
0000
1000
0010
0000
0000
0000
0001
0000
0000
0100
0000
0001
,
0000
0000
0100
0000
0010
0000
0000
1000
0000
0001
0000
0000
,
0010
0000
0100
0000
0000
0001
0000
1000
0000
0010
0000
0000
,
1000
0000
0101
0000
0100
0010
0000
0000
0000
0000
0000
0000
,
0000
2002
0000
0000
0000
0000
0000
0000
0000
0000
0000
0000
,
0000
0000
0000
0000
0000
0000
0000
3003
0220
0000
0000
0000
,
0330
0000
0001
0000
1000
0000
0000
0010
0000
0000
0100
0000
,
0001
0000
0100
0000
0000
0010
0000
1000
0000
0010
0000
0000
,
0100
0000
0001
0000
0010
0000
0000
1000
0000
0001
0000
0000
,
0110
0000
0000
0000
0001
0000
1000
0010
0000
0000
0100
0000
,
0010
0000
0000
1000
0000
0001
0000
0010
0000
0010
0000
0000
,
0110
0000
0000
0001
0000
1000
0000
0010
0000
0000
1000
0000
,
1000
0000
0000
1000
0000
0000
0001
0000
0001
0000
0001
0000
,
1000
0000
0000
1000
0000
1000
0000
0000
0001
0000
0001
0000
,
0001
0000
0100
0000
0010
0000
0000
0100
0000
0001
0000
0000
,
1000
0000
0010
0000
0000
1001
0000
0000
0000
0000
0010
0000
,
1000
0000
0000
0001
0000
0100
0000
0010
0000
0000
1000
0000
,
0011
0000
0000
0000
0010
1000
0000
0000
0000
0100
0010
0000
,
0000
0000
0000
0000
0000
0000
0001
0000
0000
1000
0000
0010
,
0000
0000
0100
0000
0001
0000
0000
1000
0000
0010
0000
0000
,
0000
0000
0001
0000
0100
0000
0000
0010
0000
0000
0001
0000
,
1000
0001
1000
0000
0000
0010
0000
0000
0000
0000
0100
0000
,
0001
0000
1000
0000
0000
0010
0100
0000
0010
0100
0000
0000
,
0001
0000
0000
0000
0000
1000
0001
0000
0000
1000
0000
0000
,
0010
0000
0100
0000
0001
1000
0000
0000
0000
0001
0000
1000
,
0010
0000
0100
0001
0000
1000
0010
0100
0000
0000
1000
0000
,
0010
0100
0000
0001
0000
0000
0100
0000
1000
0000
0000
0100
,
0000
0010
1000
0000
0000
0010
0000
0001
0000
1100
0000
0010
,
0000
1000
0001
0000
0100
0000
0010
0000
0100
0001
0000
1000
,
0000
0010
0000
1000
0000
0001
0000
0100
0010
0000
0000
0100
,
0001
0000
0010
0000
0001
0000
1000
0000
0010
0000
0100
0000
,
0001
0000
1000
0000
0010
0000
0100
0001
0000
1000
0000
0010
,
0000
0100
0001
0010
0000
0000
0001
0010
0000
0001
0000
0100
,
0000
0010
1000
0000
0000
0010
1000
0000
0000
0010
0000
0100
,
0000
0001
0000
1000
0000
0000
0010
0000
0100
0000
0000
0000
,
1000
0000
0010
0000
0100
0000
0001
0000
1000
0000
0010
0000
,
0100
0000
0001
0000
1000
0000
0010
0000
0000
0100
0000
0001
,
0000
0000
0000
0000
2002
0000
0000
0000
0000
0000
0000
0000
,
0000
3003
0000
1000
0001
0000
1000
0000
0000
0000
0000
0000
,
0001
0000
1000
0001
0000
1000
0001
0000
1000
0000
0001
0000
,
1000
0001
0000
0000
0000
0000
0000
0010
0000
0001
0000
0000
,
0100
0000
0010
0000
0000
1000
0000
0001
0000
0000
0100
0000
,
0010
0000
1000
0000
0001
0000
0000
0110
0000
0000
0000
0010
,
0100
0000
0000
0000
0220
0000
0000
0000
0000
0000
0000
0000
,
0000
0000
0000
0000
0300
0030
0000
2002
0000
0000
0000
0000
,
0000
0000
3003
2002
,
0000
0000
0000
0000
0000
0000
0000
3003
0000
0000
0010
0000
,
0000
0100
0000
0000
0010
0000
1000
0000
0000
0001
0000
0100
,
0000
0000
0001
0000
1000
0000
0000
0010
0000
0100
0000
0000
,
0010
0000
0100
0000
0001
0000
0000
1000
0000
0002
2000
0000
,
0000
0000
0000
0000
0000
3000
0000
1003
0000
0000
0000
0001
,
0000
0000
1000
0000
0001
0000
0000
0000
0000
0100
0000
0010
,
0000
1000
0000
0000
0001
0000
0000
0100
0000
0002
0000
0000
,
1000
0000
0000
0000
0000
1000
0000
0100
0000
0000
0010
0000
,
1000
0000
0010
0000
0000
0000
0000
1000
0003
0000
0000
0000
,
0100
0000
0010
0000
0000
2000
0000
0001
0000
0010
0000
0000
,
0001
0000
0010
0000
0000
0001
0000
0010
3000
1000
0000
0000
,
0020
0000
0000
0100
0000
1000
0000
0000
0100
0000
1000
0000
,
0100
0000
0000
1000
0000
0100
0000
1000
0000
0000
0100
0000
,
1000
0000
0000
0230
0001
0000
0000
0001
0000
0010
0000
0001
,
0000
0000
0010
0000
0300
1000
0000
0001
0000
1000
0000
0000
,
1001
0010
0110
1000
0001
1001
0000
0000
0000
0000
0000
0000
,
2002
0000
0000
0000
0000
0000
0000
0000
0000
3000
0003
0000
;
